<?xml version="1.0" standalone="no"?>
<!DOCTYPE svg PUBLIC "-//W3C//DTD SVG 1.1//EN" "http://www.w3.org/Graphics/SVG/1.1/DTD/svg11.dtd" >
<svg xmlns="http://www.w3.org/2000/svg">
<metadata>Generated by IcoMoon</metadata>
<defs>
<font id="icomoon" horiz-adv-x="1024">
<font-face units-per-em="1024" ascent="960" descent="-64" />
<missing-glyph horiz-adv-x="1024" />
<glyph unicode="&#x20;" horiz-adv-x="512" d="" />
<glyph unicode="&#xe900;" glyph-name="chevron-down" horiz-adv-x="1792" d="M896-64c13.333 0 24 4 32 12v0l852 816c21.333 21.333 21.333 42.667 0 64v0l-124 120c-21.333 21.333-42.667 21.333-64 0v0l-696-668-696 668c-21.333 21.333-42.667 21.333-64 0v0l-124-120c-21.333-21.333-21.333-42.667 0-64v0l852-816c8-8 18.667-12 32-12z" />
<glyph unicode="&#xe901;" glyph-name="star" horiz-adv-x="1103" d="M542.382 169.551l-304.837-184.32 81.526 346.191-268.209 232.763 353.28 30.72 138.24 324.923 138.24-324.923 353.28-30.72-267.028-232.763 80.345-346.191z" />
<glyph unicode="&#xe902;" glyph-name="arrow-left" horiz-adv-x="1502" d="M1487.303 546.85v-156.74h-1127.765l284.809-286.72-112.777-112.777-477.867 477.867 477.867 477.867 112.777-112.777-284.809-286.72z" />
<glyph unicode="&#xe903;" glyph-name="arrow-right" horiz-adv-x="1536" d="M0 531.968v-167.936h1208.32l-305.152-307.2 120.832-120.832 512 512-512 512-120.832-120.832 305.152-307.2z" />
<glyph unicode="&#xe904;" glyph-name="arrow-top" horiz-adv-x="709" d="M397.312-64h-111.957v805.547l-204.8-203.435-80.555 80.555 341.333 341.333 341.333-341.333-80.555-80.555-204.8 203.435z" />
<glyph unicode="&#xe905;" glyph-name="close" d="M1003.93 858.227l-400.192-400.192 400.192-400.192-101.773-101.773-400.192 400.192-400.192-400.192-101.773 101.773 400.192 400.192-400.192 400.192 101.773 101.773 400.192-400.192 400.192 400.192z" />
<glyph unicode="&#xe906;" glyph-name="comments" horiz-adv-x="1170" d="M417.959 542.041c0 46.367-37.224 83.592-83.592 83.592s-83.592-37.224-83.592-83.592c0-46.367 37.224-83.592 83.592-83.592s83.592 37.224 83.592 83.592zM668.735 542.041c0 46.367-37.224 83.592-83.592 83.592s-83.592-37.224-83.592-83.592c0-46.367 37.224-83.592 83.592-83.592s83.592 37.224 83.592 83.592zM919.51 542.041c0 46.367-37.224 83.592-83.592 83.592s-83.592-37.224-83.592-83.592c0-46.367 37.224-83.592 83.592-83.592s83.592 37.224 83.592 83.592zM1170.286 542.041c0-231.184-261.878-417.959-585.143-417.959-47.673 0-94.041 3.918-137.796 11.755-74.449-74.449-171.755-125.388-284.082-149.551-17.633-3.265-36.571-6.531-56.163-8.49-10.449-1.306-20.245 5.878-22.857 15.673-2.612 10.449 5.224 16.98 13.061 24.163 41.143 38.531 90.122 69.224 107.102 207.020-124.735 76.408-204.408 190.041-204.408 317.388 0 231.184 261.878 417.959 585.143 417.959s585.143-186.776 585.143-417.959z" />
<glyph unicode="&#xe907;" glyph-name="facebook" d="M832 960c106 0 192-86 192-192v-640c0-106-86-192-192-192h-125.333v396.667h132.667l20 154.667h-152.667v98.667c0 44.667 12 74.667 76.667 74.667l81.333 0.667v138c-14 2-62.667 6-118.667 6-118 0-199.333-72-199.333-204v-114h-133.333v-154.667h133.333v-396.667h-354.667c-106 0-192 86-192 192v640c0 106 86 192 192 192h640z" />
<glyph unicode="&#xe908;" glyph-name="globe" d="M484.572 941.715c267.524 0 484.572-217.048 484.572-484.572s-217.048-484.572-484.572-484.572c-267.524 0-484.572 217.048-484.572 484.572s217.048 484.572 484.572 484.572zM675.7 609.072c-0.196 0.045-0.39 0.089-0.58 0.132 0.003 0.001 0.006 0.002 0.009 0.003l0.571-0.134zM675.129 609.206c4.415 1.256 10.089-1.263 13.872 1.259 8.202 5.679 2.524 8.202-4.417 10.095-8.833 2.524-20.191-3.155-27.131-7.571-4.142-3.107-7.010-8.338-11.393-10.812 1.24 3.623 3.567 11.314 5.083 13.336 3.786 4.417 8.833 6.94 13.881 9.464 10.726 4.417 21.452 5.679 32.81 7.571 10.691 2.516 23.889 2.524 32.098-6.847-1.349 2.204 13.36 15.059 15.224 15.681 5.679 3.155 15.143 1.893 18.929 7.571 1.262 1.893 1.262 13.881 1.262 13.881-10.63-1.251-14.443 8.653-15.125 17.429-0.026-0.406-1.288-2.294-3.803-4.81 0.631 9.464-11.357 2.524-15.774 3.786-14.512 3.786-12.619 13.881-17.036 24.607-2.524 5.679-9.464 7.571-11.988 13.25-2.524 3.786-3.786 11.988-9.464 12.619-3.786 0.631-10.726-13.25-11.988-12.619-5.679 3.155-8.202-1.262-12.619-3.786-3.455-2.304-6.385-1.453-9.749-2.727 9.112 3.69-5.586 9.385-11.353 8.472 8.464 2.498 4.055 11.931-0.982 16.338h3.155c-1.262 5.679-18.929 10.726-24.607 14.512s-35.964 10.095-42.274 6.31c-7.571-4.417 1.893-17.036 1.893-23.345 0.631-7.571-7.571-9.464-7.571-15.774 0-10.726 20.191-8.833 15.143-23.345-3.155-8.833-15.143-10.726-20.191-17.667-5.048-6.31 0.631-17.667 5.679-22.083 5.048-3.786-8.833-10.095-10.726-11.357-10.726-5.048-18.929 10.726-21.452 20.191-1.893 6.94-2.524 15.143-10.095 18.929-3.786 1.262-15.774 3.155-18.298-0.631-3.786 9.464-17.036 13.25-25.869 16.405-12.619 4.417-23.345 4.417-36.595 2.524 4.417 0.631-1.262 20.191-11.988 17.036 3.155 6.31 1.893 13.25 3.155 19.56 1.262 5.048 3.786 10.095 7.571 14.512 1.262 2.524 15.143 17.036 10.726 17.667 10.726-1.262 22.714-1.893 31.548 6.94 5.679 5.679 8.202 15.143 13.881 21.452 8.202 9.464 18.298-2.524 27.131-3.155 12.619-0.631 11.988 13.25 5.048 19.56 8.202-0.631 1.262 14.512-3.155 16.405-5.674 1.891-27.094-3.776-15.803-8.191-2.606 1.018-17.67-30.239-26.471-14.523-2.524 3.155-3.786 16.405-9.464 17.036-4.81 0-7.901-5.157-9.82-8.918 2.845 7.666-17.946 13.336-22.359 13.966 9.464 6.31 1.893 13.25-5.048 17.036-5.048 3.155-20.821 5.679-25.238 0.631-11.988-14.512 12.619-16.405 18.929-20.191 1.893-1.262 9.464-5.679 5.048-8.833-3.786-1.893-15.143-5.048-16.405-7.571-3.786-5.679 4.417-11.988-1.262-17.667-5.554 5.554-5.676 14.73-9.811 21.033 4.185-6.36-22.985-2.736-22.367-2.736-9.464 0-24.607-6.31-31.548 3.155-1.253 2.506-1.262 16.831 2.444 13.945-5.634 4.393-9.402 8.781-13.17 11.293-20.821-6.94-40.381-15.774-59.31-25.869 2.524-0.631 4.417-0.631 7.571 0.631 5.048 1.893 9.464 5.048 14.512 7.571 6.31 2.524 19.56 10.095 26.5 4.417 0.631 1.262 2.524 2.524 3.155 3.155 4.417-5.048 8.833-10.095 12.619-15.774-5.048 2.524-13.25 1.262-18.929 0.631-4.417-1.262-11.988-2.524-13.881-7.571 1.893-3.155 4.417-8.202 3.155-11.357-8.202 5.679-14.512 15.143-25.869 16.405-5.048 0-10.095 0-13.881-0.631-60.572-33.441-111.679-82.024-148.274-140.072 2.524-2.524 5.048-4.417 7.571-5.048 6.31-1.893 0-20.191 11.988-10.726 3.786-3.155 4.417-7.571 1.893-11.988 0.631 0.631 25.869-15.774 27.762-17.036 4.417-3.786 11.357-8.202 13.25-13.25 1.262-4.417-2.524-9.464-6.31-11.357-0.631 1.262-10.095 10.726-11.357 8.202-1.887-3.144-0.013-20.076 6.871-19.565-10.006-0.8-5.615-39.761-8.133-47.316 0-0.631 1.262-0.631 1.262-0.631-1.889-7.555 4.39-37.1 16.955-34.091-7.972-2.065 14.603-30.903 17.747-32.79 8.202-5.679 17.667-9.464 23.345-17.667 6.31-8.833 6.31-22.083 15.143-29.024-2.524-7.571 13.25-16.405 12.619-27.131-1.262-0.631-1.893-0.631-3.155-1.262 3.155-8.833 15.143-8.833 19.56-17.036 2.524-5.048 0-17.036 8.202-14.512 1.262 13.881-8.202 27.762-15.143 39.119-3.786 6.31-7.571 11.988-10.726 18.298-3.155 5.679-3.786 12.619-6.31 18.929 2.524-0.631 16.405-5.679 15.143-7.571-5.048-12.619 20.191-34.702 27.131-42.905 1.893-1.893 16.405-20.821 8.833-20.821 8.202 0 19.56-12.619 23.345-18.929 5.679-9.464 4.417-21.452 8.202-31.548 3.786-12.619 21.452-18.298 31.548-23.976 8.833-4.417 16.405-10.726 25.238-13.881 13.25-5.048 16.405-0.631 27.762 1.262 16.405 2.524 18.298-15.774 31.548-22.714 8.185-4.407 25.795-10.7 34.647-6.964-3.554-1.505 13.312-27.117 14.568-29 5.679-7.571 16.405-11.357 22.714-18.929 1.8 1.2 3.601 2.971 4.315 5.313-2.020-7.018 9.672-19.804 15.875-18.563 6.94 1.262 8.833 15.143 8.833 20.191-12.619-6.31-23.976-1.262-30.917 11.357-1.262 3.155-11.357 20.821-2.524 20.821 11.988 0 3.786 9.464 2.524 18.298s-10.095 14.512-14.512 22.083c-3.786-7.571-16.405-5.679-20.191 0.631 0-1.893-1.893-5.048-1.893-7.571-3.155 0-6.31-0.631-9.464 0.631 1.262 7.571 1.893 17.036 3.786 25.238 3.155 11.357 23.976 33.441-3.155 32.179-9.464-0.631-13.25-4.417-16.405-12.619-3.155-7.571-1.893-14.512-10.726-18.298-5.679-2.524-24.607-1.262-30.286 1.893-11.988 6.94-20.191 29.024-20.191 41.643-0.631 17.036 8.202 32.179 0 47.952 3.786 3.155 7.571 9.464 11.988 12.619 3.786 2.524 8.202-1.893 10.095 5.679-1.719 1.146-3.959 3.333-4.828 3.725 9.566-4.162 26.986 6.313 35.114 0.061 5.048-3.786 10.726-5.048 13.881 1.262 0.631 1.893-4.417 9.464-1.893 14.512 1.893-10.726 8.833-12.619 18.298-5.679 3.786-3.786 13.881-2.524 20.821-6.31 6.94-4.417 8.202-11.357 16.405-1.893 5.048-7.571 5.679-7.571 7.571-15.143 1.893-6.94 5.679-24.607 11.988-27.762 13.25-8.202 10.095 13.881 8.833 21.452-0.631 0.631-0.631 21.452-1.262 21.452-20.191 4.417-12.619 20.191-1.262 30.917 1.893 1.262 16.405 6.31 22.714 11.357 5.679 5.048 12.619 13.881 9.464 22.083 3.155 0 5.679 2.524 6.94 5.679-1.839 0.613-9.035 6.583-10.602 6.347 4.29 2.504 3.656 6.281 1.138 10.058 6.31 3.786 3.155 10.726 9.464 13.25 6.94-9.464 20.821 1.262 13.881 8.833 6.31 8.833 20.821 4.417 24.607 12.619 9.464-2.524 2.524 9.464 7.571 16.405 4.417 5.679 11.988 5.679 17.667 8.833 0-0.631 15.774 8.833 10.726 9.464 10.726-1.262 32.179 10.095 15.774 19.56 2.439 5.488-5.14 8.029-10.777 9.333l-0.571 0.134zM585.648 500.717c-0.046-0.007-0.088-0.019-0.124-0.037 0.010 0.006 0.020 0.011 0.030 0.017l0.094 0.020zM428.637 422.38c-0.088 0.040-0.162 0.061-0.219 0.061 0.086-0.040 0.173-0.079 0.26-0.117l-0.041 0.056zM540.626 214.492c0.037 0.12 0.071 0.242 0.101 0.365-0.043-0.117-0.081-0.236-0.115-0.356l0.014-0.009zM499.027 257.11c0.018 0.008 0.038 0.015 0.057 0.022-0.019-0.008-0.037-0.016-0.056-0.024l-0.001 0.002zM204.348 508.231c0.027 0.006 0.054 0.013 0.080 0.020-0.027-0.006-0.054-0.013-0.080-0.020zM194.266 590.27c0.022 0.002 0.045 0.003 0.068 0.005-0.023-0.002-0.047-0.004-0.070-0.006l0.002 0.001zM419.868 813.844c-0.093 0.141-0.187 0.281-0.284 0.419 0.122-0.149 0.229-0.294 0.32-0.433l-0.036 0.014zM476.014 815.44c-0.095-0.186-0.186-0.368-0.275-0.546 0.003 0.007 0.005 0.013 0.008 0.020l0.268 0.526zM521.77 821.847c0.010-0.004 0.019-0.008 0.028-0.013-0.010 0.004-0.019 0.008-0.029 0.011l0.001 0.001zM646.447 719.055c-0.121-0.019-0.238-0.041-0.351-0.066 0.019 0.005 0.038 0.011 0.056 0.016l0.295 0.050zM657.864 710.541c-0.318-0.131-0.664-0.26-1.042-0.385 0.33 0.165 0.656 0.306 0.977 0.428l0.064-0.043zM750.221 680.263c-0.006 0.079-0.012 0.159-0.018 0.238 0-0.002 0-0.004 0-0.006l0.018-0.232zM729.932 625.701c0.027-0.031 0.054-0.062 0.081-0.093-0.029 0.029-0.054 0.061-0.075 0.095l-0.006-0.002zM646.061 602.177c-0.958-0.541-1.988-0.95-3.119-1.176 0.627 0.125 1.255 0.675 1.872 1.495l1.247-0.319zM576.149 212.978c-0.383 0.347-0.637 0.755-0.719 1.248 0.027-0.164 0.055-0.329 0.081-0.494l0.638-0.755zM575.511 213.733c2.443-14.992 2.477-30.588 5.597-45.566 1.893-8.833 0-23.345-7.571-30.286s-17.036-14.512-18.298-25.238c-1.262-7.571 0.631-14.512 7.571-16.405 0.631-9.464-10.095-16.405-9.464-26.5 0-0.631 0.631-6.94 1.262-10.095 86.441 15.143 163.417 58.048 221.465 119.25-3.786 3.786-10.726 2.524-15.774 5.048-5.048 1.893-8.833 3.786-15.143 5.048 1.262 12.619-12.619 17.036-21.452 23.345-8.202 6.31-13.25 13.25-25.238 10.726-1.262-0.631-13.881-5.048-11.357-7.571-8.202 6.94-11.988 10.726-22.714 13.881-10.095 3.155-17.036 15.774-27.131 4.417-2.958-2.958-3.316-6.783-3.613-10.458-1.451 5.248 3.987 10.514-0.173 15.506-7.571 8.833-20.821-5.679-27.131-9.464-3.786-3.155-8.202-4.417-10.726-8.202-3.155-4.417-4.417-10.095-6.94-14.512-1.646 4.39-9.973 4.007-12.531 6.323l-0.638 0.755zM633.65 223.328c-0.21-2.597-0.39-5.119-1.435-7.208-2.795 2.365-2.806 4.876-1.856 7.459l3.29-0.251z" />
<glyph unicode="&#xe909;" glyph-name="menu" horiz-adv-x="233" d="M216.201 51.247c0-26.639-9.794-49.752-29.381-69.339s-42.7-29.381-69.339-29.381c-26.639 0-49.752 9.794-69.339 29.381s-29.381 42.7-29.381 69.339c0 26.639 9.794 49.752 29.381 69.339s42.7 29.381 69.339 29.381c26.639 0 49.752-9.794 69.339-29.381s29.381-42.7 29.381-69.339zM216.201 442.371c0-26.639-9.794-49.752-29.381-69.339s-42.7-29.381-69.339-29.381c-26.639 0-49.752 9.794-69.339 29.381s-29.381 42.7-29.381 69.339c0 26.639 9.794 49.752 29.381 69.339s42.7 29.381 69.339 29.381c26.639 0 49.752-9.794 69.339-29.381s29.381-42.7 29.381-69.339zM216.201 833.496c0-26.639-9.794-49.752-29.381-69.339s-42.7-29.381-69.339-29.381c-26.639 0-49.752 9.794-69.339 29.381s-29.381 42.7-29.381 69.339c0 26.639 9.794 49.752 29.381 69.339s42.7 29.381 69.339 29.381c26.639 0 49.752-9.794 69.339-29.381s29.381-42.7 29.381-69.339z" />
<glyph unicode="&#xe90a;" glyph-name="more" horiz-adv-x="4267" d="M3840 895.829c116.238 0 217.090-42.734 302.56-128.203s128.203-186.321 128.203-302.559c0-116.238-42.734-217.090-128.203-302.559s-186.321-128.203-302.56-128.203c-116.238 0-217.090 42.734-302.56 128.203s-128.203 186.321-128.203 302.559c0 116.238 42.734 217.090 128.203 302.559s186.321 128.203 302.56 128.203zM2133.333 895.829c116.238 0 217.090-42.734 302.56-128.203s128.203-186.321 128.203-302.559c0-116.238-42.734-217.090-128.203-302.559s-186.321-128.203-302.56-128.203c-116.238 0-217.090 42.734-302.56 128.203s-128.203 186.321-128.203 302.559c0 116.238 42.734 217.090 128.203 302.559s186.321 128.203 302.56 128.203zM426.667 895.829c116.238 0 217.090-42.734 302.56-128.203s128.203-186.321 128.203-302.559c0-116.238-42.734-217.090-128.203-302.559s-186.321-128.203-302.56-128.203c-116.238 0-217.090 42.734-302.56 128.203s-128.203 186.321-128.203 302.559c0 116.238 42.734 217.090 128.203 302.559s186.321 128.203 302.56 128.203z" />
<glyph unicode="&#xe90b;" glyph-name="search" horiz-adv-x="970" d="M368.917 333.959c43.979 0 84.507 10.994 121.587 32.984s66.398 51.523 87.956 88.603c21.558 37.080 32.337 77.608 32.337 121.587s-10.779 84.507-32.337 121.587c-21.558 37.080-50.876 66.398-87.956 87.956s-77.608 32.337-121.587 32.337c-43.978 0-84.506-10.779-121.587-32.337s-66.614-50.876-88.603-87.956c-21.989-37.080-32.984-77.608-32.984-121.587s10.995-84.507 32.984-121.587c21.989-37.080 51.523-66.614 88.603-88.603s77.608-32.984 121.587-32.984zM692.285 333.959l267.749-267.749-81.489-81.489-267.749 269.043v42.685l-15.522 14.228c-30.181-26.732-64.889-47.212-104.125-61.44s-79.979-21.342-122.233-21.342c-63.811 0-122.664 15.522-176.559 46.565s-96.363 72.865-127.407 125.467c-31.906 54.326-47.859 113.394-47.859 177.206s15.737 122.664 47.212 176.559c31.475 53.895 74.159 96.364 128.054 127.407s112.748 46.565 176.559 46.565c63.812 0 122.88-15.953 177.206-47.859 52.602-31.044 94.208-73.297 124.82-126.76s45.918-112.101 45.918-175.912c0-43.116-7.114-84.291-21.342-123.527s-34.708-73.943-61.44-104.125l14.228-15.522h43.978z" />
<glyph unicode="&#xe90c;" glyph-name="twitter" horiz-adv-x="1210" d="M1210.182 843.282c-33.787-49.144-76.020-92.914-124.397-128.236 0.768-10.75 0.768-21.501 0.768-32.251 0-327.886-249.562-705.683-705.683-705.683-140.522 0-271.062 40.698-380.869 111.343 19.965-2.304 39.162-3.072 59.895-3.072 115.95 0 222.686 39.162 307.921 105.968-109.039 2.304-200.417 73.717-231.9 172.006 15.358-2.304 30.715-3.839 46.841-3.839 22.269 0 44.537 3.072 65.27 8.447-113.647 23.036-198.881 122.861-198.881 243.419 0 0.768 0 2.304 0 3.072 33.019-18.429 71.413-29.947 112.111-31.483-66.806 44.537-110.575 120.557-110.575 206.56 0 46.073 12.286 88.306 33.787 125.165 122.093-150.505 305.617-248.794 511.409-259.544-3.839 18.429-6.143 37.626-6.143 56.823 0 136.683 110.575 248.026 248.026 248.026 71.413 0 135.915-29.947 181.22-78.324 56.055 10.75 109.807 31.483 157.416 59.895-18.429-57.591-57.591-105.968-109.039-136.683 49.912 5.375 98.289 19.197 142.826 38.394z" />
<glyph unicode="&#xe90d;" glyph-name="imdb" d="M610.56 550.912v-0.213c-3.285 2.048-9.685 2.987-17.92 2.987v-205.44c11.52 0 18.773 2.56 21.333 7.040 2.645 4.437 4.053 17.28 4.053 37.76v122.283c0 14.080-0.171 23.040-1.408 26.88-0.939 4.096-2.859 6.955-6.059 8.704zM956.416 960h-887.296c-37.461-2.56-66.56-31.744-69.12-68.096v-886.784c2.56-37.291 30.379-65.792 66.347-68.992 0.64-0.128 1.28-0.128 1.92-0.128h889.387c37.547 3.755 66.133 35.243 66.347 72.96v878.080c0 37.973-29.653 69.973-67.584 72.96zM204.459 293.291h-81.28v314.283h81.28zM483.499 293.376h-70.912v212.053l-28.587-212.011h-50.688l-29.781 207.36-0.299-207.36h-71.125v314.155h105.301c3.541-22.315 6.827-44.715 9.813-67.157l11.52-79.787 18.859 146.944h105.941zM695.851 386.389c0-27.947-1.877-46.677-4.437-56.32-2.645-9.387-7.253-17.067-13.909-22.187-6.4-5.547-14.507-9.301-24.32-11.349-9.515-1.92-24.32-3.2-43.52-3.2l-0.171 0.085h-98.347v314.155h60.843c38.997 0 61.867-2.005 75.52-5.461 13.867-3.84 24.533-9.6 31.787-17.92 7.040-7.68 11.648-17.237 13.355-27.52 2.133-10.027 3.243-30.080 3.243-59.819zM906.795 366.123c0-19.2-1.92-32.597-3.84-42.24-2.56-9.557-8.32-17.237-17.28-24.235-9.643-7.083-20.48-10.24-33.28-10.24-9.387 0-21.333 2.56-29.013 5.803-8.107 4.011-15.275 10.112-21.973 18.219l-4.949-20.053h-73.259v314.197l-0.853 0.128h76.8v-102.4c6.4 7.467 13.44 13.227 21.76 17.067 8.363 3.541 19.883 5.419 29.44 5.419 9.643 0.128 19.2-1.536 28.16-4.907 7.253-2.987 13.653-7.893 18.603-14.080 3.84-5.333 6.4-11.52 7.68-17.92 1.28-5.888 1.877-18.347 1.877-37.12zM814.080 481.92c-5.12 0-8.277-1.707-9.6-5.12-1.28-3.413-2.56-12.373-2.56-26.624v-83.029c0-13.824 1.28-22.741 2.56-26.581 1.707-3.669 5.547-5.973 9.643-5.717 5.12 0 11.605 2.005 12.8 5.973 1.28 4.139 1.963 13.653 1.963 28.757l1.28 0.085v80.64c0 12.928-0.64 21.675-2.56 25.728-1.877 4.267-8.32 5.973-13.525 5.888z" />
<glyph unicode="&#xe90e;" glyph-name="vk" d="M669.184 960h-314.368c-286.891 0-354.816-67.925-354.816-354.816v-314.368c0-286.891 67.925-354.816 354.816-354.816h314.368c286.891 0 354.816 67.925 354.816 354.816v314.368c0 286.891-68.651 354.816-354.816 354.816zM826.709 229.419h-74.411c-28.16 0-36.864 22.4-87.467 73.685-44.075 42.667-63.573 48.427-74.411 48.427-15.189 0-19.541-4.352-19.541-25.301v-67.2c0-18.091-5.76-28.928-53.461-28.928-78.763 0-166.229 47.701-227.627 136.619-92.501 130.048-117.845 227.627-117.845 247.851 0 10.837 4.352 20.949 25.301 20.949h74.411c18.773 0 26.027-8.661 33.28-28.885 36.821-106.24 98.261-199.467 123.563-199.467 9.387 0 13.739 4.352 13.739 28.16v109.909c-2.901 50.603-29.653 54.912-29.653 72.96 0 8.704 7.253 17.365 18.773 17.365h117.077c15.915 0 21.675-8.661 21.675-27.435v-148.181c0-15.872 7.253-21.675 11.563-21.675 9.387 0 17.365 5.803 34.688 23.125 53.504 59.989 91.776 152.491 91.776 152.491 5.077 10.837 13.739 20.949 32.555 20.949h74.411c22.4 0 27.477-11.52 22.4-27.435-9.387-43.392-100.437-171.989-100.437-171.989-7.936-13.013-10.837-18.773 0-33.28 7.936-10.837 33.963-33.237 51.328-53.461 31.787-36.139 56.32-66.475 62.848-87.467 7.253-20.907-3.627-31.744-24.533-31.787z" />
<glyph unicode="&#xe90f;" glyph-name="moon" d="M566.422-64c157.924 0 302.158 71.85 397.714 189.584 14.136 17.416-1.278 42.86-23.124 38.7-248.406-47.308-476.524 143.152-476.524 393.908 0 144.444 77.324 277.27 202.996 348.788 19.372 11.024 14.5 40.394-7.512 44.46-28.125 5.44-60.472 8.555-93.546 8.56h-0.004c-282.618 0-512-229.022-512-512 0-282.618 229.022-512 512-512z" />
<glyph unicode="&#xe910;" glyph-name="sunny" d="M512 724c-24.301 0-44 19.699-44 44v0 96c0 24.301 19.699 44 44 44s44-19.699 44-44v0-96c0-24.301-19.699-44-44-44v0zM512-12c-24.301 0-44 19.699-44 44v0 96c0 24.301 19.699 44 44 44s44-19.699 44-44v0-96c0-24.301-19.699-44-44-44v0zM738.28 630.28c-24.298 0.003-43.995 19.701-43.995 44 0 12.144 4.92 23.139 12.875 31.1l67.88 67.88c7.919 7.719 18.754 12.48 30.7 12.48 24.301 0 44-19.699 44-44 0-11.947-4.761-22.781-12.489-30.71l-67.871-67.871c-7.94-7.957-18.919-12.88-31.047-12.88-0.018 0-0.037 0-0.055 0h0.003zM217.84 109.84c-24.298 0.003-43.995 19.701-43.995 44 0 12.154 4.928 23.157 12.894 31.12l67.88 67.88c8.001 8.208 19.166 13.3 31.52 13.3 24.301 0 44-19.699 44-44 0-12.354-5.091-23.519-13.29-31.511l-67.889-67.889c-7.945-7.969-18.935-12.9-31.076-12.9-0.016 0-0.031 0-0.047 0h0.002zM928 404h-96c-24.301 0-44 19.699-44 44s19.699 44 44 44v0h96c24.301 0 44-19.699 44-44s-19.699-44-44-44v0zM192 404h-96c-24.301 0-44 19.699-44 44s19.699 44 44 44v0h96c24.301 0 44-19.699 44-44s-19.699-44-44-44v0zM806.16 109.84c-0.013 0-0.029 0-0.044 0-12.141 0-23.13 4.931-31.075 12.899l-67.881 67.881c-7.719 7.919-12.48 18.754-12.48 30.7 0 24.301 19.699 44 44 44 11.947 0 22.781-4.761 30.71-12.489l67.871-67.871c7.967-7.963 12.895-18.966 12.895-31.12 0-24.299-19.696-43.997-43.994-44v0zM285.72 630.28c-0.025 0-0.056 0-0.086 0-12.118 0-23.086 4.923-31.013 12.879l-67.881 67.881c-7.719 7.919-12.48 18.754-12.48 30.7 0 24.301 19.699 44 44 44 11.947 0 22.781-4.761 30.71-12.489l67.871-67.871c7.955-7.961 12.875-18.956 12.875-31.1 0-24.299-19.696-43.997-43.994-44v0zM512 244c-112.666 0-204 91.334-204 204s91.334 204 204 204c112.666 0 204-91.334 204-204v0c-0.137-112.611-91.389-203.863-203.987-204h-0.013z" />
<glyph unicode="&#xe914;" glyph-name="steam" d="M511.104 960c-268.843 0-489.301-207.36-510.165-470.912l274.432-113.408c23.253 15.829 51.328 25.173 81.579 25.173 2.688 0 5.333-0.171 8.021-0.256l122.069 176.725v2.517c0 106.453 86.528 193.024 193.024 193.024 106.411 0 193.024-86.656 193.024-193.152s-86.613-193.067-193.024-193.067h-4.48l-173.909-124.203c0-2.219 0.171-4.48 0.171-6.784 0-80-64.64-144.896-144.64-144.896-69.76 0-128.683 50.048-142.123 116.352l-196.48 81.365c60.843-214.912 258.133-372.48 492.501-372.48 282.752 0 511.957 229.248 511.957 512s-229.248 512-511.957 512zM321.707 183.040l-62.848 26.027c11.179-23.168 30.464-42.624 56.064-53.333 55.339-22.997 119.168 3.243 142.165 58.667 11.221 26.88 11.264 56.277 0.213 83.157s-32 47.829-58.752 59.008c-26.624 11.093-55.040 10.624-80.128 1.28l64.981-26.88c40.789-17.067 60.117-64 43.051-104.747-16.939-40.832-63.872-60.16-104.704-43.179zM808.747 579.968c0 70.912-57.728 128.64-128.64 128.64-71.040 0-128.64-57.728-128.64-128.64 0-71.040 57.6-128.64 128.64-128.64 70.955 0 128.64 57.6 128.64 128.64zM583.765 580.181c0 53.419 43.221 96.683 96.64 96.683 53.291 0 96.683-43.264 96.683-96.683 0-53.376-43.392-96.64-96.683-96.64-53.461 0-96.64 43.264-96.64 96.64z" />
<glyph unicode="&#xe915;" glyph-name="twitch" d="M89.131 960l-66.731-178.133v-712.277h244.736v-133.589h133.632l133.419 133.632h200.32l267.093 267.008v623.36zM178.133 871.040h734.507v-489.771l-155.819-155.819h-244.821l-133.419-133.419v133.419h-200.448zM423.040 425.728h88.96v267.093h-88.96zM667.733 425.728h89.003v267.093h-89.003z" />
<glyph unicode="&#xe916;" glyph-name="youtube" d="M1002.453 695.253c-12.365 43.307-45.781 76.722-88.183 88.866l-0.905 0.222c-79.787 21.376-400.896 21.376-400.896 21.376s-320.299 0.427-400.896-21.376c-43.307-12.365-76.722-45.781-88.866-88.183l-0.222-0.905c-14.173-72.978-22.281-156.904-22.281-242.723 0-1.743 0.003-3.484 0.010-5.225l-0.001 0.268c-0.004-1.198-0.006-2.617-0.006-4.035 0-85.813 8.107-169.732 23.598-251.033l-1.32 8.327c12.365-43.307 45.781-76.722 88.183-88.866l0.905-0.222c79.701-21.419 400.896-21.419 400.896-21.419s320.256 0 400.896 21.419c43.307 12.365 76.722 45.781 88.866 88.183l0.222 0.905c13.59 71.472 21.364 153.686 21.364 237.715 0 3.173-0.011 6.344-0.033 9.513l0.003-0.486c0.024 2.951 0.037 6.439 0.037 9.929 0 84.041-7.776 166.267-22.648 245.996l1.278-8.245zM409.984 294.357v306.901l267.264-153.685z" />
<glyph unicode="&#xe917;" glyph-name="vimeo" d="M1023.019 686.251c-4.48-99.755-74.197-236.501-208.811-409.984-139.435-181.205-257.109-271.787-353.707-271.787-60.117 0-109.995 55.211-151.595 165.589l-81.835 303.531c-30.677 110.251-63.488 165.461-98.645 165.461-7.637 0-34.389-16.128-80.256-48.299l-48.171 62.165c50.56 44.544 100.309 88.917 149.376 133.461 67.371 58.368 117.973 88.96 151.637 92.117 79.659 7.68 128.683-46.933 147.072-163.755 19.84-125.995 33.664-204.331 41.429-234.965 22.997-104.533 48.256-156.757 75.776-156.757 21.419 0 53.589 33.963 96.64 101.76 42.837 67.797 65.707 119.339 68.779 154.795 6.144 58.496-16.853 87.936-68.864 87.936-24.491 0-49.792-5.163-75.819-16.683 50.603 165.035 146.517 245.632 288.512 240.512 105.515-2.56 154.795-70.997 149.035-204.672z" />
<glyph unicode="&#xe918;" glyph-name="whatsapp" d="M746.581 346.368c-12.843 6.4-75.392 36.992-87.040 41.216-11.648 4.309-20.181 6.4-28.715-6.4-8.405-12.587-32.896-41.131-40.277-49.579-7.467-8.32-14.891-8.96-27.563-3.2-12.8 6.4-53.888 19.84-102.528 63.36-37.888 33.92-63.317 75.52-70.827 88.32-7.424 12.8-0.811 19.84 5.547 26.24 5.803 5.76 12.843 14.72 19.243 22.315 6.229 7.723 8.277 12.843 12.672 21.163 4.267 8.96 2.091 16-1.067 22.357-3.2 6.4-28.672 69.12-39.339 94.123-10.24 24.917-20.779 21.76-28.672 21.76-7.339 0.64-15.829 0.64-24.363 0.64s-22.315-3.157-34.005-15.317c-11.648-12.8-44.587-43.52-44.587-105.6s45.653-122.24 52.011-131.2c6.357-8.32 89.813-136.32 217.6-191.36 30.464-12.8 54.187-20.48 72.704-26.837 30.464-9.685 58.24-8.32 80.213-5.163 24.491 3.883 75.392 30.763 86.016 60.843 10.88 30.080 10.88 55.040 7.68 60.8-3.157 5.76-11.52 8.96-24.32 14.72zM514.603 32h-0.683c-75.52 0-150.357 20.48-215.68 58.88l-15.36 9.131-160-41.6 42.88 155.52-10.197 16c-42.24 67.243-64.683 144.683-64.683 224.427 0 232.32 190.080 421.76 424.192 421.76 113.237 0 219.52-44.16 299.563-124.16 80-79.317 124.117-185.6 124.117-298.24-0.171-232.277-190.293-421.76-423.893-421.76zM875.52 812.843c-97.28 94.037-225.28 147.157-361.6 147.157-280.832 0-509.483-227.584-509.611-507.435 0-89.429 23.424-176.64 68.053-253.653l-72.363-262.912 270.293 70.485c74.496-40.235 158.293-61.611 243.627-61.739h0.256c280.96 0 509.696 227.669 509.824 507.563 0 135.509-52.907 263.040-149.12 358.869z" />
<glyph unicode="&#xe919;" glyph-name="reddit" d="M94.037 360.576c-2.56-11.776-3.883-23.893-3.883-36.139 0-146.901 187.819-266.624 418.731-266.624 230.827 0 418.645 119.637 418.645 266.624 0 11.691-1.237 23.296-3.499 34.517l-0.64 1.365c-0.896 2.347-1.237 4.693-1.237 7.040-12.885 50.133-47.659 95.616-97.963 132.395-1.92 0.683-3.755 1.664-5.376 2.987-1.109 0.853-1.92 1.792-2.859 2.731-76.459 52.651-185.856 85.675-307.029 85.675-120.107 0-228.437-32.384-304.896-84.096-0.597-0.768-1.237-1.408-2.091-2.091-1.664-1.408-3.584-2.56-5.547-3.2-51.456-36.779-87.125-82.645-100.437-133.248 0-2.475-0.597-4.864-1.579-7.296zM511.019 128.427c-76.544 0-130.432 16.597-164.821 51.072-7.381 7.424-7.381 19.499 0 26.965 7.509 7.040 19.627 7.040 27.093 0 26.88-26.837 71.893-40.235 137.728-40.235 65.792 0 110.549 12.8 137.344 39.637 7.040 6.997 19.2 6.997 26.837 0 7.040-7.68 7.040-19.84 0-27.52-34.517-34.475-88.107-51.115-164.779-51.115zM357.163 451.541c-38.997 0-71.552-32.64-71.552-71.552 0-38.827 32.555-70.4 71.552-70.4s70.443 31.573 70.443 70.4c0 38.912-31.531 71.552-70.443 71.552zM665.771 451.541c-38.997 0-71.595-32.64-71.595-71.552 0-38.827 32.597-70.4 71.595-70.4s70.443 31.573 70.443 70.4c0 38.912-31.531 71.552-70.443 71.552zM859.819 519.595c44.245-35.541 76.8-77.696 93.397-123.904 19.2 14.336 30.677 36.864 30.677 61.824 0 42.752-34.773 77.483-77.568 77.483-17.024 0-33.195-5.504-46.507-15.488zM115.669 534.912c-42.795 0-77.525-34.816-77.525-77.568 0-23.168 10.197-44.715 27.477-59.264 17.109 46.037 50.005 87.595 94.421 122.709-12.885 8.96-28.288 14.037-44.331 14.037zM508.928 19.541c-251.989 0-456.917 136.747-456.917 304.725 0 11.733 0.981 23.211 2.901 34.517-33.835 21.035-54.912 58.112-54.912 98.731 0 63.829 52.352 115.755 116.267 115.755 28.757 0 55.595-10.496 76.672-29.099 79.189 50.816 185.899 82.816 303.445 84.992l77.312 235.691 17.237-4.053c0 0 0.683 0 0.683-0.085l180.181-42.368c14.677 34.048 48.555 58.027 88.107 58.027 52.437 0 95.189-42.837 95.189-95.317 0-52.565-42.795-95.317-95.189-95.317s-95.147 42.837-95.147 95.147l-164.309 38.912-62.592-191.019c113.067-4.48 215.339-36.437 292.011-86.229 21.077 19.797 48.811 30.677 78.208 30.677 63.915 0 115.968-51.755 115.968-115.669 0-42.112-23.040-80.469-58.795-100.907 1.237-10.88 2.517-21.077 2.517-31.957-0.64-168.021-205.056-304.768-457.387-304.768zM857.899 838.187c-31.573 0-57.173-25.557-57.173-57.088 0-31.488 25.6-57.173 57.173-57.173 31.232 0 56.747 25.6 56.747 56.917 0 31.275-25.515 56.832-57.472 56.832z" />
<glyph unicode="&#xe91a;" glyph-name="rss" d="M819.157-64c0 449.408-369.749 819.2-819.157 819.2v204.8c561.707 0 1024-462.293 1024-1024zM140.416 216.96c77.397 0 140.501-63.104 140.501-140.587 0-77.355-63.36-140.373-140.843-140.373-77.355 0-140.075 62.891-140.075 140.373s62.933 140.544 140.416 140.587zM678.784-64h-199.040c0 263.211-216.533 479.787-479.744 479.787v199.040c372.352 0 678.784-306.517 678.784-678.827z" />
<glyph unicode="&#xe91b;" glyph-name="spotify" d="M512 960c-281.6 0-512-230.4-512-512s230.4-512 512-512 512 230.4 512 512-227.84 512-512 512zM747.563 220.16c-10.24-15.317-28.16-20.48-43.563-10.24-120.32 74.24-271.36 89.643-450.603 48.683-17.835-5.205-33.237 7.637-38.357 22.997-5.12 17.963 7.68 33.28 23.040 38.4 194.56 43.563 363.52 25.6 496.64-56.32 17.92-7.68 20.437-28.117 12.843-43.52zM809.003 360.96c-12.843-17.92-35.883-25.6-53.845-12.8-138.197 84.48-348.117 110.080-509.397 58.88-20.437-5.12-43.52 5.12-48.64 25.6s5.12 43.563 25.6 48.683c186.88 56.277 417.28 28.075 576-69.163 15.403-7.723 23.040-33.28 10.283-51.2zM814.123 504.32c-163.883 97.28-437.803 107.52-593.963 58.837-25.6-7.637-51.2 7.723-58.88 30.763-7.68 25.643 7.68 51.2 30.72 58.923 181.76 53.76 481.28 43.52 670.763-69.163 22.997-12.8 30.677-43.52 17.877-66.56-12.757-17.963-43.52-25.557-66.517-12.8z" />
<glyph unicode="&#xe91c;" glyph-name="telegram" d="M1020.16 798.293l-154.027-727.467c-10.667-51.627-41.813-64-85.333-40.107l-234.667 173.653-113.493-109.653c-12.8-12.8-23.467-23.893-46.933-23.893-30.72 0-25.6 11.52-35.84 40.533l-81.067 264.107-232.533 72.533c-50.347 14.933-50.773 49.493 11.093 74.667l907.093 349.867c41.387 18.347 81.067-10.24 65.707-74.24z" />
<glyph unicode="&#xe91d;" glyph-name="soundcloud" d="M50.133 438.4c-2.176 0-4.011-1.963-4.309-4.267l-9.941-91.904 9.941-89.813c0.299-2.475 2.133-4.181 4.309-4.181 2.133 0 3.84 1.707 4.224 4.181l10.88 89.813-11.52 91.904c0 2.432-1.92 4.267-3.84 4.267zM11.52 403.072c-2.56 0-3.883-1.579-4.437-4.011l-7.083-56.832 7.040-55.808c0-2.347 1.92-4.011 3.84-4.011s3.797 1.92 4.437 4.437l8.96 56.277-8.96 56.917c0 2.603-1.877 3.84-3.84 3.84zM89.557 456.32c-2.603 0-5.12-1.92-5.12-4.437l-8.96-109.355 9.6-104.875c0-2.56 1.92-5.12 5.077-5.12 2.603 0 4.48 2.603 5.163 5.12l10.837 105.557-10.837 108.715c-0.683 2.56-2.603 5.12-5.163 5.12zM130.475 460.843c-3.2 0-5.76-2.56-6.4-5.76l-8.235-112.64 8.96-108.544c0.683-3.285 3.2-5.888 6.357-5.888 3.2 0 5.76 2.603 6.4 6.4l10.24 108.032-10.24 111.915c0 3.2-2.56 5.76-5.76 5.76zM179.755 445.483c-0.213 3.84-3.2 6.357-6.784 6.357-3.84 0-6.741-2.56-6.997-6.357l-9.259-103.68 8.533-109.355c0-3.84 3.2-6.699 6.784-6.699 3.157 0 6.315 2.901 6.315 6.741l9.685 109.355-9.685 104.277zM214.272 518.4c-4.309 0-7.68-3.84-7.68-7.723l-8.96-168.832 7.979-109.355c0-3.84 3.413-6.997 7.68-6.997 4.011 0 7.424 3.84 7.68 7.68l8.917 109.355-8.917 169.472c-0.341 4.437-3.755 7.68-7.68 7.68zM254.208 558.677c-4.48 0-8.32-3.84-8.661-8.277l-7.68-207.872 7.040-108.715c0-5.12 3.84-8.917 8.32-8.917 4.437 0 8.277 3.797 8.96 8.917l8.235 108.715-8.192 207.189c-0.683 5.12-4.48 8.96-8.96 8.96zM295.467 577.835c-5.163 0-9.003-3.797-9.6-8.917l-7.040-225.067 7.040-107.52c0.597-5.077 4.437-9.6 9.6-9.6 5.077 0 9.6 4.48 9.6 9.6l8.32 107.52-8.363 225.067c0 5.12-4.48 9.6-9.6 9.6zM348.544 576.597c0 5.76-4.48 10.24-10.24 10.24-5.077 0-10.24-4.48-10.24-10.24l-6.357-232.149 6.357-106.795c0.683-5.76 5.163-10.24 10.923-10.24s10.24 4.48 10.24 10.24l6.997 106.795-6.997 232.789zM380.501 582.315c-5.76 0-10.88-5.077-10.88-10.837l-6.4-227.072 6.4-105.515c0-6.4 5.12-10.88 10.88-10.88s10.88 5.12 10.88 11.52l6.4 105.557-7.040 226.432c0 6.315-5.12 11.52-11.563 11.52zM422.059 575.957c-6.997 0-12.117-5.76-12.117-12.16l-4.395-219.435 5.76-105.557c0-6.357 5.077-11.819 12.117-11.819 6.357 0 11.563 5.12 12.117 12.16l5.163 104.235-5.76 218.112c-0.512 6.997-5.76 12.16-12.16 12.16zM473.301 613.973c-1.92 1.237-4.48 1.877-7.040 1.877s-5.077-0.64-7.040-1.877c-3.84-2.304-6.357-6.4-6.357-10.88v-2.603l-4.437-258.048 4.907-104.491v-0.341c0.341-2.56 1.28-5.76 3.157-7.68 2.475-2.603 6.059-4.437 9.984-4.437 3.413 0 6.741 1.877 8.917 3.84 2.475 2.56 3.883 5.76 3.883 9.6l0.64 10.24 4.992 93.995-5.76 259.669c0 4.437-2.603 8.235-5.76 10.197zM516.224 637.312c-1.92 1.92-3.84 2.603-6.4 2.603-3.157 0-6.357-0.683-8.917-2.603-3.2-2.603-5.077-6.4-5.077-10.24v-1.237l-5.845-281.984 3.243-51.84 2.603-50.56c0-6.997 6.315-13.397 13.995-13.397 7.723 0 14.080 6.4 14.080 14.037l6.4 102.997-6.4 283.179c0 5.12-3.157 9.429-7.040 11.819zM898.048 478.933c-17.28 0-33.92-3.669-48.597-9.899-10.24 113.237-104.96 202.069-221.355 202.069-28.117 0-55.68-5.76-80.597-15.317-9.6-3.84-11.52-7.68-12.16-15.317v-399.701c0.683-7.68 6.4-14.080 14.080-14.72h349.227c69.077-0.683 125.355 54.955 125.355 124.672s-56.277 125.952-125.355 125.952z" />
<glyph unicode="&#xe91e;" glyph-name="flickr" d="M0 448c0-131.157 106.411-237.397 237.44-237.397 131.2 0 237.611 106.24 237.611 237.397s-106.368 237.397-237.611 237.397c-130.987 0-237.44-106.24-237.44-237.397zM548.949 448c0-131.157 106.368-237.397 237.525-237.397 130.688 0 237.525 106.24 237.525 237.397s-106.325 237.397-237.397 237.397c-131.2 0-237.653-106.24-237.653-237.397z" />
<glyph unicode="&#xe91f;" glyph-name="letterboxd" d="M512-64c-282.77 0-512 229.23-512 512s229.23 512 512 512c282.77 0 512-229.23 512-512s-229.23-512-512-512zM337.92 749.056v-573.44h387.392v143.153h-238.453v430.287h-148.939z" />
<glyph unicode="&#xe920;" glyph-name="odnoklassniki" d="M618.88 215.893c54.4 12.373 106.368 33.877 153.6 63.573 35.584 23.808 45.141 71.936 21.333 107.52-22.869 34.219-68.437 44.544-103.893 23.595-108.8-68.053-247.040-68.053-355.84 0-36.139 22.784-83.84 11.947-106.667-24.107 0-0.085 0-0.171-0.085-0.213-22.784-36.139-11.947-83.883 24.192-106.667l0.085-0.085c47.147-29.653 99.072-51.2 153.429-63.488l-147.84-147.84c-30.165-29.653-30.72-78.080-1.195-108.245l1.28-1.28c14.677-15.104 34.56-22.613 54.357-22.613 19.84 0 39.68 7.509 54.4 22.613l145.963 145.237 145.237-145.323c30.72-29.653 79.787-28.843 109.483 1.92 28.928 29.995 28.928 77.568 0 107.52zM512 431.445c145.92 0.171 264.107 118.357 264.32 264.235 0 145.707-118.613 264.32-264.32 264.32s-264.32-118.613-264.32-264.405c0.213-145.92 118.443-264.107 264.32-264.149zM512 805.077c60.416-0.085 109.355-49.067 109.397-109.44 0-60.416-48.981-109.355-109.397-109.44-60.373 0.085-109.312 48.981-109.44 109.397 0.085 60.459 49.067 109.397 109.44 109.483z" />
<glyph unicode="&#xe921;" glyph-name="pinterest" d="M512.725 960c-282.496 0-511.488-228.992-511.488-511.445 0-216.704 134.741-401.792 325.035-476.245-4.48 40.491-8.491 102.528 1.749 146.731 9.344 39.979 59.989 254.165 59.989 254.165s-15.317 30.72-15.317 75.989c0 70.955 41.259 124.203 92.501 124.203 43.691 0 64.768-32.811 64.768-72.021 0-43.904-27.861-109.525-42.325-170.325-12.16-50.901 25.6-92.373 75.733-92.373 90.795 0 160.768 95.787 160.768 234.112 0 122.069-88.021 207.744-213.675 207.744-145.493 0-230.784-109.312-230.784-221.824 0-44.075 16.811-91.435 37.931-116.949 4.224-5.12 4.779-9.6 3.627-14.72-3.84-16-12.501-51.157-14.251-58.155-2.261-9.6-7.339-11.563-17.109-7.040-63.787 29.44-103.808 122.795-103.808 198.229 0 161.109 117.248 309.419 337.92 309.419 177.408 0 315.392-126.592 315.392-295.381 0-176.427-111.232-318.379-265.941-318.379-51.797 0-100.437 26.837-117.675 58.837l-31.957-121.515c-11.477-44.587-42.837-100.352-63.915-134.229 47.915-14.72 98.389-22.827 151.467-22.827 281.899 0 511.36 228.907 511.36 511.445 0 282.581-229.461 511.445-511.36 511.445z" />
<glyph unicode="&#xe922;" glyph-name="tiktok" d="M534.613 959.147c55.893 0.853 111.36 0.427 166.827 0.853 3.413-65.28 26.88-131.84 74.667-177.92 47.787-47.36 115.2-69.12 180.907-76.373v-171.947c-61.44 2.133-123.307 14.933-179.2 41.387-24.32 11.093-46.933 25.173-69.12 39.68-0.427-124.587 0.427-249.173-0.853-373.333-3.413-59.733-23.040-119.040-57.6-168.107-55.893-81.92-152.747-135.253-252.16-136.96-61.013-3.413-122.027 13.227-174.080 43.947-86.187 50.773-146.773 143.787-155.733 243.627-0.853 21.333-1.28 42.667-0.427 63.573 7.68 81.067 47.787 158.72 110.080 211.627 70.827 61.44 169.813 90.88 262.4 73.387 0.853-63.147-1.707-126.293-1.707-189.44-42.24 13.653-91.733 9.813-128.853-15.787-26.88-17.493-47.36-44.373-58.027-74.667-8.96-21.76-6.4-45.653-5.973-68.693 10.24-69.973 77.653-128.853 149.333-122.453 47.787 0.427 93.44 28.16 118.187 68.693 8.107 14.080 17.067 28.587 17.493 45.227 4.267 76.373 2.56 152.32 2.987 228.693 0.427 171.947-0.427 343.467 0.853 514.987z" />
<glyph unicode="&#xe923;" glyph-name="tumblr" d="M621.355-64c-217.301 0-299.989 160.256-299.989 273.536v334.592h-103.083v132.224c154.88 56.021 192.512 196.096 200.96 276.011 0.597 5.461 4.907 7.637 7.381 7.637h150.059v-260.864h204.843v-155.008h-205.653v-318.72c0.683-42.709 16-101.163 94.165-101.163h3.84c26.923 0.853 63.403 8.747 82.603 17.877l49.323-146.133c-18.603-27.136-102.4-58.624-177.323-59.904h-7.595z" />
<glyph unicode="&#xe924;" glyph-name="xing" d="M776.021 960c-22.059 0-31.616-13.867-39.552-28.16 0 0-318.080-564.224-328.619-582.699 0.64-1.024 209.877-384.981 209.877-384.981 7.253-13.141 18.603-28.16 41.259-28.16h147.371c9.003 0 16 3.328 19.755 9.387 3.797 6.443 3.797 14.763-0.384 22.869l-208.171 380.416c-0.171 0.256-0.171 0.683 0 0.939l327.040 578.133c4.053 8.149 4.139 16.512 0.256 22.827-3.797 6.101-10.709 9.429-19.584 9.429zM155.648 757.76c-9.003 0-16.427-3.157-20.181-9.216-3.84-6.357-3.328-14.464 0.853-22.656l99.84-172.8c0.171-0.427 0.171-0.683 0-0.896l-156.8-277.035c-4.224-8.021-3.968-16.256 0-22.571 3.627-6.059 10.197-9.984 19.2-9.984h147.669c22.101 0 32.683 14.848 40.32 28.459l159.317 281.984-101.461 177.28c-7.339 13.44-18.517 28.117-41.045 28.117h-147.712z" />
<glyph unicode="&#xe925;" glyph-name="mixcloud" d="M936.533 146.688c-6.571 0-13.227 1.92-18.987 5.76-15.744 10.667-19.84 32-9.6 47.36 31.488 46.677 48 101.589 48 158.677s-16.512 112-48 158.763c-10.624 15.701-6.187 36.949 9.216 47.189 16 10.624 37.12 6.229 47.275-9.131 39.125-58.24 59.563-126.72 59.563-197.12 0-70.315-20.437-138.837-59.563-197.077-5.76-10.197-16.64-15.317-27.52-15.317zM838.827 201.899c-6.528 0-13.141 1.92-18.987 5.931-15.744 10.197-19.755 31.317-9.173 46.677 20.864 30.763 31.872 65.92 31.872 103.68 0 36.48-11.008 72.32-31.872 103.723-10.581 15.36-6.571 36.437 9.173 46.72s36.565 6.4 47.189-9.6c28.544-42.24 43.563-91.52 43.563-141.397 0-51.243-15.019-99.84-43.563-141.44-6.229-10.24-17.323-15.36-28.203-15.36zM679.68 507.093c-13.397 136.405-128.683 243.157-268.8 243.157-116.096 0-218.88-74.581-255.787-182.741-87.339-12.885-155.093-88.32-155.093-179.243 0-100.011 81.579-181.504 181.76-181.504h465.408c83.797 0 152.149 68.011 152.149 151.765 0 72.789-51.2 133.504-119.68 148.48zM647.168 274.731h-465.28c-62.549 0-113.877 50.816-113.877 113.408 0 62.507 50.901 113.408 113.877 113.408 30.293 0 58.923-12.16 80.469-33.323 12.8-13.397 34.603-13.397 48 0 12.8 12.843 12.8 34.603 0 48-23.68 23.125-52.523 39.723-83.84 47.403 32 71.040 103.68 118.357 183.68 118.357 111.317 0 202.24-90.837 202.24-202.155 0-21.845-3.2-42.923-10.24-63.403-5.76-17.92 3.84-37.077 21.76-43.52 3.157-1.28 7.040-1.92 10.24-1.92 14.080 0 27.52 9.003 32 23.040 4.48 13.44 7.68 26.88 9.6 40.96 31.317-12.16 53.76-42.88 53.76-78.080 0-46.763-37.76-84.437-83.84-84.437z" />
<glyph unicode="&#xe926;" glyph-name="mixer" d="M104.789 901.333c-27.166-0.087-51.889-10.477-70.481-27.465l0.081 0.073c-40.107-36.992-43.349-99.456-10.795-143.488l209.792-281.173-211.029-283.733c-32.512-44.032-29.952-106.496 10.837-143.488 18.521-16.972 43.307-27.372 70.522-27.372 34.185 0 64.537 16.409 83.61 41.781l0.193 0.269 294.571 395.947c3.299 4.507 5.279 10.161 5.279 16.277s-1.98 11.77-5.334 16.356l0.055-0.078-293.376 394.027c-19.113 25.643-49.354 42.071-83.433 42.071-0.173 0-0.346 0-0.519-0.001h0.027zM919.253 901.333c-0.159 0.001-0.347 0.001-0.535 0.001-34.078 0-64.32-16.428-83.237-41.796l-0.196-0.274-292.693-393.387c-3.29-4.503-5.264-10.149-5.264-16.256s1.974-11.753 5.319-16.335l-0.055 0.079 293.973-396.629c19.266-25.64 49.618-42.049 83.803-42.049 27.215 0 52.001 10.4 70.6 27.443l-0.078-0.071c40.789 36.992 43.349 99.456 10.837 143.488l-211.072 283.733 209.792 281.173c32.512 44.032 29.312 106.496-10.837 143.488-18.497 16.912-43.205 27.302-70.339 27.392h-0.018z" />
<glyph unicode="&#xe927;" glyph-name="wechat" d="M1004.416 416.085c-25.984 58.88-75.008 105.643-131.925 134.443-100.437 50.859-225.323 50.56-325.504-1.28-69.589-35.712-127.701-99.712-144.171-177.579-13.568-57.344-1.408-119.083 29.013-169.003 45.269-75.179 127.104-123.179 212.096-138.581 61.568-12.501 125.269-5.077 185.088 12.16 35.925-13.909 67.925-36.437 102.741-53.163-9.003 30.165-18.603 59.989-28.843 89.685 39.083 27.733 74.496 62.336 95.744 105.771 31.744 60.373 33.664 135.296 5.76 197.547zM580.992 819.968c-106.453 59.904-239.019 68.907-353.536 27.52-75.264-27.093-143.36-77.44-185.429-145.92-38.187-61.867-52.48-139.008-34.091-209.792 18.475-78.507 73.003-144.341 139.179-188.288-12.8-36.267-24.96-72.491-36.48-109.013 41.6 21.76 83.2 44.501 124.843 66.603 49.92-16 103.040-23.851 156.16-22.101-14.080 40.235-17.28 83.84-10.88 125.909 9.6 58.496 41.6 112 85.077 151.637 73.643 68.907 177.963 97.963 277.163 90.923-18.603 91.093-82.603 168.064-163.157 212.48zM654.933 393.771c-8.917-27.819-49.323-36.181-68.907-15.019-21.589 19.584-13.184 60.501 15.147 69.248 31.317 13.227 67.499-22.912 53.76-54.229zM859.52 389.845c-10.923-25.003-48.683-30.848-67.243-11.52-8.917 8.149-11.52 20.437-14.677 31.147 4.437 19.541 17.92 39.808 39.68 40.747 30.080 4.181 57.003-32.981 41.6-60.416zM554.24 665.216c0.341-41.003-54.4-66.603-85.12-38.784-31.872 22.827-22.827 78.379 14.592 89.856 33.493 13.44 73.088-14.677 70.443-50.56zM295.723 654.805c-7.339-35.627-55.083-52.821-83.029-28.928-32.384 22.827-23.296 79.403 14.72 90.923 37.248 14.336 79.573-23.467 68.309-61.995z" />
<glyph unicode="&#xe928;" glyph-name="deviantart" d="M819.499 755.456l9.813 18.347v186.197h-186.325l-18.603-18.773-87.808-167.467-27.563-18.603h-313.6v-255.701h172.373l15.36-18.603-178.133-340.48-10.24-18.347v-186.027h186.24l18.603 18.773 88.32 167.467 27.477 18.603h313.6v255.701h-172.8l-15.36 18.688z" />
<glyph unicode="&#xe929;" glyph-name="discord" d="M862.805 960c59.989 0 108.373-48.512 111.232-105.6v-918.4l-114.219 96.981-62.72 57.088-68.437 59.648 28.587-94.080h-598.955c-59.819 0-108.373 45.44-108.373 105.643v692.907c0 57.088 48.64 105.685 108.587 105.685h704zM601.771 717.525h-1.28l-8.619-8.533c88.448-25.6 131.243-65.579 131.243-65.579-57.003 28.501-108.373 42.752-159.744 48.512-37.12 5.76-74.24 2.731-105.6 0h-8.533c-20.053 0-62.72-8.533-119.893-31.36-19.925-8.661-31.36-14.336-31.36-14.336s42.752 42.752 136.96 65.579l-5.76 5.76c0 0-71.339 2.731-148.352-54.187 0 0-77.013-134.144-77.013-299.52 0 0 42.667-74.24 159.701-77.056 0 0 17.067 22.741 34.347 42.752-65.707 19.968-91.307 59.904-91.307 59.904s5.717-2.816 14.293-8.533h2.56c1.28 0 1.877-0.64 2.56-1.28v-0.256c0.683-0.683 1.28-1.28 2.56-1.28 14.080-5.803 28.16-11.52 39.68-17.067 19.883-8.619 45.44-17.195 76.8-22.869 39.68-5.76 85.163-8.533 136.96 0 25.6 5.76 51.2 11.392 76.8 22.827 16.64 8.533 37.12 17.067 59.605 31.445 0 0-25.6-39.936-94.080-59.904 14.080-19.883 33.92-42.667 33.92-42.667 117.077 2.56 162.56 76.8 165.12 73.643 0 165.12-77.44 299.52-77.44 299.52-69.76 51.797-135.040 53.76-146.56 53.76zM608.939 529.237c29.995 0 54.187-25.6 54.187-56.96 0-31.573-24.32-57.173-54.187-57.173s-54.187 25.6-54.187 56.917c0.085 31.573 24.448 57.088 54.187 57.216zM415.104 529.237c29.867 0 54.016-25.6 54.016-56.96 0-31.573-24.32-57.173-54.187-57.173s-54.187 25.6-54.187 56.917c0 31.573 24.32 57.088 54.357 57.216z" />
<glyph unicode="&#xe92a;" glyph-name="instagram" d="M512 960c-139.093 0-156.459-0.64-211.072-3.072-54.528-2.56-91.648-11.136-124.288-23.808-33.664-13.056-62.251-30.592-90.709-59.051s-46.037-57.003-59.051-90.709c-12.672-32.64-21.291-69.76-23.808-124.288-2.56-54.613-3.072-71.979-3.072-211.072s0.64-156.459 3.072-211.072c2.56-54.485 11.136-91.648 23.808-124.288 13.056-33.621 30.592-62.251 59.051-90.709 28.459-28.416 57.003-46.037 90.709-59.051 32.683-12.629 69.803-21.291 124.288-23.808 54.613-2.56 71.979-3.072 211.072-3.072s156.459 0.64 211.072 3.072c54.485 2.56 91.648 11.179 124.288 23.808 33.621 13.056 62.251 30.635 90.709 59.051 28.416 28.459 46.037 56.96 59.051 90.709 12.629 32.64 21.291 69.803 23.808 124.288 2.56 54.613 3.072 71.979 3.072 211.072s-0.64 156.459-3.072 211.072c-2.56 54.485-11.179 91.691-23.808 124.288-13.056 33.664-30.635 62.251-59.051 90.709-28.459 28.459-56.96 46.037-90.709 59.051-32.64 12.672-69.803 21.291-124.288 23.808-54.613 2.56-71.979 3.072-211.072 3.072zM512 867.84c136.661 0 152.96-0.683 206.933-3.029 49.92-2.347 77.013-10.624 95.019-17.707 23.979-9.259 40.96-20.352 58.965-38.229 17.877-17.92 28.971-34.944 38.229-58.923 6.997-18.005 15.36-45.099 17.621-95.019 2.432-54.016 2.987-70.229 2.987-206.933s-0.64-152.96-3.157-206.933c-2.603-49.92-10.923-77.013-17.963-95.019-9.557-23.979-20.437-40.96-38.357-58.965-17.877-17.877-35.157-28.971-58.88-38.229-17.92-6.997-45.44-15.36-95.36-17.621-54.357-2.432-70.357-2.987-207.317-2.987-137.003 0-153.003 0.64-207.317 3.157-49.963 2.603-77.483 10.923-95.403 17.963-24.277 9.557-40.96 20.437-58.837 38.357-17.963 17.877-29.44 35.157-38.4 58.88-7.040 17.92-15.317 45.44-17.92 95.36-1.92 53.76-2.603 70.357-2.603 206.677 0 136.363 0.683 153.003 2.603 207.403 2.603 49.92 10.88 77.397 17.92 95.317 8.96 24.32 20.437 40.96 38.4 58.923 17.877 17.877 34.56 29.397 58.837 38.315 17.92 7.083 44.843 15.403 94.763 17.963 54.4 1.92 70.4 2.56 207.317 2.56zM512 710.912c-145.28 0-262.912-117.76-262.912-262.912 0-145.28 117.76-262.912 262.912-262.912 145.28 0 262.912 117.76 262.912 262.912 0 145.28-117.76 262.912-262.912 262.912zM512 277.333c-94.293 0-170.667 76.373-170.667 170.667s76.373 170.667 170.667 170.667 170.667-76.373 170.667-170.667-76.373-170.667-170.667-170.667zM846.763 721.28c0-33.92-27.563-61.44-61.44-61.44-33.92 0-61.44 27.563-61.44 61.44s27.563 61.397 61.44 61.397c33.835 0.043 61.44-27.52 61.44-61.397z" />
<glyph unicode="&#xe92b;" glyph-name="linkedin" d="M872.405 87.381h-151.637v237.611c0 56.661-1.152 129.579-79.019 129.579-79.061 0-91.136-61.653-91.136-125.397v-241.792h-151.637v488.619h145.664v-66.603h1.963c20.352 38.4 69.845 78.933 143.787 78.933 153.643 0 182.059-101.12 182.059-232.747zM227.712 642.859c-48.811 0-88.021 39.509-88.021 88.107 0 48.555 39.253 88.021 88.021 88.021 48.64 0 88.064-39.467 88.064-88.021 0-48.597-39.467-88.107-88.064-88.107zM303.744 87.381h-152.064v488.619h152.064zM948.267 960h-872.704c-41.771 0-75.563-33.024-75.563-73.771v-876.459c0-40.789 33.792-73.771 75.563-73.771h872.576c41.728 0 75.861 32.981 75.861 73.771v876.459c0 40.747-34.133 73.771-75.861 73.771z" />
<glyph unicode="&#xe92c;" glyph-name="snapchat" d="M520.789 926.165c42.24 0 185.472-11.776 253.013-163.029 22.571-50.901 17.195-137.344 12.757-206.805l-0.128-2.56c-0.512-7.68-0.939-14.72-1.28-21.76 3.2-1.92 8.661-3.84 17.109-3.84 12.8 0.683 28.117 5.12 44.075 12.843 7.040 3.755 14.677 4.437 19.797 4.437 7.765 0 15.317-1.237 21.717-3.84 19.2-6.357 31.317-20.437 31.317-35.755 0.64-19.157-16.64-35.797-51.755-49.835-3.797-1.237-8.917-3.2-14.677-5.077-19.2-5.76-48.597-15.36-56.875-34.56-3.84-9.557-2.603-22.357 5.12-37.035l0.64-0.64c2.56-5.803 65.109-148.267 204.416-171.264 10.88-1.877 18.56-11.52 17.92-21.717 0-3.2-0.64-6.357-1.92-9.6-10.24-24.277-54.315-42.155-134.229-54.229-2.517-3.883-5.12-16-6.997-24.32-1.237-7.637-3.157-15.36-5.717-23.595-3.243-11.563-11.52-17.28-23.68-17.28h-1.28c-5.76 0-13.355 1.323-22.955 3.157-15.36 3.2-32.64 5.76-54.315 5.76-12.8 0-25.557-0.64-38.955-3.157-25.6-4.437-47.915-19.797-73.515-37.717-36.395-25.557-77.909-54.955-140.544-54.955-2.56 0-5.077 0.64-7.68 0.64h-6.357c-62.635 0-103.552 28.8-139.904 54.955-25.557 17.92-47.232 33.237-72.832 37.717-13.397 1.92-26.837 3.157-39.595 3.157-23.040 0-40.875-3.797-54.272-6.357-9.003-1.835-16.683-3.157-23.040-3.157-15.957 0-22.315 9.557-24.875 17.92-2.603 8.192-3.84 16.597-5.76 24.192-1.963 7.723-4.48 21.077-7.083 24.32-81.835 9.472-125.867 27.392-136.064 52.309-1.323 2.688-2.219 6.4-2.347 9.6-0.64 10.368 7.040 19.84 17.92 21.717 139.264 23.040 201.813 165.504 204.416 171.52l0.683 1.237c7.68 14.72 9.557 27.52 5.077 37.077-8.32 18.517-37.717 28.075-56.832 34.517-5.163 1.237-10.24 3.157-14.763 5.077-47.232 18.56-53.632 39.68-51.072 54.315 3.84 20.437 28.757 33.835 49.835 33.835 6.229 0 11.52-1.237 16.341-3.157 17.92-8.277 33.664-12.8 47.104-12.8 9.984 0 16.384 2.56 19.84 4.48l-1.963 24.277c-4.181 69.376-9.6 155.776 13.099 206.379 65.664 150.485 208.469 162.005 250.624 162.005l17.877 0.64z" />
<glyph unicode="&#xe92d;" glyph-name="gitlab" d="M206.677 921.429c-18.898-0.028-34.933-12.253-40.658-29.222l-0.089-0.303-107.947-332.075c0-0.299-0.213-0.512-0.299-0.853l-54.699-167.936c-1.906-5.662-3.005-12.183-3.005-18.96 0-20.319 9.884-38.329 25.105-49.485l0.172-0.12 472.405-343.253c3.925-2.874 8.85-4.599 14.177-4.599 5.429 0 10.439 1.791 14.472 4.815l-0.063-0.045 472.491 343.040c15.417 11.266 25.319 29.283 25.319 49.613 0 6.822-1.115 13.383-3.172 19.512l0.126-0.432-53.76 164.992c-0.33 1.689-0.787 3.176-1.38 4.591l0.057-0.154-107.776 331.733c-5.878 17.109-21.831 29.185-40.603 29.185-0.080 0-0.161 0-0.241-0.001h0.012c-0.098 0.001-0.214 0.001-0.33 0.001-18.733 0-34.609-12.231-40.077-29.143l-0.083-0.298-102.656-316.075h-324.181l-102.827 316.075c-5.552 17.209-21.428 29.44-40.16 29.44-0.026 0-0.052 0-0.079 0h0.004zM206.421 860.843l92.757-284.928h-185.088zM817.749 860.843l92.501-284.928h-185.259zM365.739 527.616h292.779l-91.733-282.368-54.784-168.149zM130.432 527.403h184.405l131.669-405.333zM709.333 527.403h184.576l-316.245-405.419 126.251 388.608zM89.6 500.821l297.728-381.739-333.568 242.432c-3.291 2.392-5.406 6.228-5.406 10.558 0 1.426 0.229 2.799 0.653 4.083l-0.026-0.092zM934.4 500.821l40.619-124.672c0.408-1.207 0.643-2.597 0.643-4.041 0-4.3-2.086-8.113-5.301-10.483l-0.036-0.025v-0.085l-333.653-242.347 1.067 1.493z" />
<glyph unicode="&#xe930;" glyph-name="github" d="M512 947.328c-282.88 0-512-229.248-512-512 0-226.261 146.688-418.133 350.080-485.76 25.6-4.821 34.987 11.008 34.987 24.619 0 12.16-0.427 44.373-0.64 87.040-142.421-30.891-172.459 68.693-172.459 68.693-23.296 59.093-56.96 74.88-56.96 74.88-46.379 31.744 3.584 31.104 3.584 31.104 51.413-3.584 78.421-52.736 78.421-52.736 45.653-78.293 119.851-55.68 149.12-42.581 4.608 33.109 17.792 55.68 32.427 68.48-113.707 12.8-233.216 56.832-233.216 253.013 0 55.893 19.84 101.547 52.693 137.387-5.76 12.928-23.040 64.981 4.48 135.509 0 0 42.88 13.739 140.8-52.48 40.96 11.392 84.48 17.024 128 17.28 43.52-0.256 87.040-5.888 128-17.28 97.28 66.219 140.16 52.48 140.16 52.48 27.52-70.528 10.24-122.581 5.12-135.509 32.64-35.84 52.48-81.493 52.48-137.387 0-196.693-119.68-240-233.6-252.587 17.92-15.36 34.56-46.763 34.56-94.72 0-68.523-0.64-123.563-0.64-140.203 0-13.44 8.96-29.44 35.2-24.32 204.843 67.157 351.403 259.157 351.403 485.077 0 282.752-229.248 512-512 512z" />
<glyph unicode="&#xe951;" glyph-name="behance" d="M296.021 767.872c29.952 0 57.173-2.56 81.92-8.021 24.619-5.547 45.653-14.080 63.36-26.027 17.493-11.947 31.275-27.733 40.96-47.787 9.6-20.053 14.507-44.8 14.507-73.813 0-31.573-7.253-58.027-21.632-79.36-14.421-21.333-35.712-38.4-64.085-52.053 38.656-11.093 67.243-30.72 86.272-58.453 19.115-28.16 28.373-61.867 28.373-100.693 0-32-5.547-59.307-17.493-82.347-11.947-23.467-28.587-42.667-49.493-57.6-20.48-14.848-44.8-25.6-71.253-32.725-26.027-7.040-53.419-10.837-81.493-10.837h-305.963v629.419h296.021zM722.773 248.96c18.773-18.261 45.781-27.435 80.811-27.435 25.173 0 46.933 6.315 65.28 19.072 18.091 12.373 29.013 26.027 33.28 40.107h110.421c-17.195-54.613-44.715-93.867-81.067-117.333-36.267-23.893-80.384-35.413-131.413-35.413-35.712 0-67.584 5.547-96.939 17.067-28.715 11.52-52.907 27.733-73.387 48.64-19.797 20.907-35.115 46.080-45.952 75.52-10.795 29.44-15.915 61.867-15.915 96.853 0 34.261 5.76 65.707 17.195 95.147 11.52 29.867 27.477 54.613 47.787 76.373 21.12 21.76 45.355 38.187 74.069 50.944s59.733 18.475 94.72 18.475c38.827 0 72.107-6.997 101.547-22.315 28.587-14.507 52.053-34.987 70.827-59.733 18.773-25.003 32-53.76 40.107-86.187 8.107-32 10.667-65.707 8.96-101.547h-328.107c0-35.84 11.947-69.632 30.293-88.107l-3.413-1.28zM285.867 246.827c13.525 0 26.453 1.28 38.656 3.968 12.373 2.56 23.381 7.040 32.555 12.8 8.96 5.76 16.64 13.995 22.187 24.875 5.547 10.24 8.107 24.32 8.107 40.96 0 32-9.387 55.040-27.307 69.12-18.347 13.653-42.24 20.48-72.107 20.48h-149.717v-172.8h147.627zM866.432 487.893c-15.019 16.427-40.107 25.259-70.699 25.259-19.968 0-36.48-3.157-49.749-10.155-12.885-6.4-23.467-14.933-31.573-25.173s-13.525-20.48-16.725-32c-3.2-11.093-5.12-21.333-5.76-30.293h203.179c-2.987 32-14.080 55.467-29.013 72.107zM278.187 514.133c24.491 0 44.8 5.717 60.8 17.579 15.957 11.52 23.637 30.72 23.637 57.088 0 14.677-2.987 26.667-7.68 36.096-5.547 9.387-12.8 16.64-21.333 21.845-8.96 5.291-19.2 8.96-30.72 10.965-11.52 2.261-23.893 3.157-35.84 3.157h-129.237v-146.773zM666.368 725.675h254.635v-62.037h-254.635v62.549z" />
</font>
</defs>
</svg>
